13 Hours The Secret Soldiers Of Benghazi 2016 720p BluRay x264 Du...

seeders: 23
leechers: 17
updated:
Added by moviezworldz in Other


[ LIMITED VPN OFFER ]
strongly advises you to use NordVPN while downloading torrents.
NordVPN is the safest VPN on the market, and the fastest VPN as well.
No IP Log is saved using NordVPN, avoid other VPN providers and choose the safest one.
Click here and buy NordVPN it's on rebates today!
We were able to verify your IP: 54.221.75.115, country: United States and you are near by: Ashburn.
If we can do that, others can too, protect your privacy with NordVPN.
is trying the best for you!
[ LIMITED VPN OFFER ]


Description

 
 
 

 
13 Hours The Secret Soldiers Of Benghazi 2016 720p BluRay x264 Dual Audio [Hindi DD 5.1 - English 2.0] ESub [MW]

General
Format : Matroska
Format version : Version 4 / Version 2
File size : 1.33 GiB
Duration : 2 h 24 min
Overall bit rate : 1 318 kb/s

Video
ID : 1
Format : AVC
Format/Info : Advanced Video Codec
Format profile : [email protected] 
Format settings : CABAC / 8 Ref Frames
Format settings, CABAC : Yes
Format settings, RefFrames : 8 frames
Codec ID : V_MPEG4/ISO/AVC
Duration : 2 h 24 min
Bit rate : 1 000 kb/s
Width : 1 280 pixels
Height : 532 pixels
Display aspect ratio : 2.40:1
Frame rate mode : Constant
Frame rate : 23.976 (24000/1001) FPS
Color space : YUV
Chroma subsampling : 4:2:0
Bit depth : 8 bits
Scan type : Progressive
Bits/(Pixel*Frame) : 0.061
Stream size : 1 014 MiB (74%)
Writing library : x264 core 155 r2901 7d0ff22
Default : Yes
Forced : No

Audio #1
ID : 2
Format : AC-3
Format/Info : Audio Coding 3
Codec ID : A_AC3
Duration : 2 h 24 min
Bit rate mode : Constant
Bit rate : 224 kb/s
Channel(s) : 6 channels
Channel positions : Front: L C R, Side: L R, LFE
Sampling rate : 48.0 kHz
Frame rate : 31.250 FPS (1536 SPF)
Bit depth : 16 bits
Compression mode : Lossy
Stream size : 231 MiB (17%)
Language : Hindi
Service kind : Complete Main
Default : Yes
Forced  : No

Audio #2
ID : 3
Format : AAC
Format/Info : Advanced Audio Codec
Format profile : LC
Codec ID : A_AAC-2
Duration : 2 h 24 min
Bit rate : 96.0 kb/s
Channel(s) : 2 channels
Channel positions : Front: L R
Sampling rate : 48.0 kHz
Frame rate : 46.875 FPS (1024 SPF)
Compression mode : Lossy
Stream size : 99.2 MiB (7%)
Language : English
Default : No
Forced : No

Text #1
ID : 4
Format : VobSub
Muxing mode : zlib
Codec ID : S_VOBSUB
Codec ID/Info : Picture based subtitle format used on DVDs
Duration : 2 h 14 min
Bit rate : 7 258 b/s
Count of elements : 2043
Stream size : 6.98 MiB (1%)
Language : English
Default : Yes
Forced : No

Text #2
ID : 5
Format : VobSub
Muxing mode : zlib
Codec ID : S_VOBSUB
Codec ID/Info : Picture based subtitle format used on DVDs
Duration : 2 h 15 min
Bit rate : 8 159 b/s
Count of elements : 2274
Stream size : 7.88 MiB (1%)
Language : English
Default : No
Forced : No
  

Click To Enlarge Image

 
 
 
 
 
 
 

Sharing Widget


Download torrent
Size: 1.3 GB
seeders:23
leechers:17
13 Hours The Secret Soldiers Of Benghazi 2016 720p BluRay x264 Du... - (1395864371 Bytes)



To share this torrent use the code below and insert it into comments, status messages, forum posts or your signature.

Torrent: 13 Hours The Secret Soldiers Of Benghazi 2016 720p BluRay x264 Du...

Trackers

tracker name
udp://tracker.coppersurfer.tk:6969/announce
udp://tracker.pirateparty.gr:6969/announce
udp://tracker.coppersurfer.tk:6969/announce
udp://tracker.leechers-paradise.org:6969/announce
udp://eddie4.nl:6969/announce
udp://tracker.tiny-vps.com:6969/announce
udp://9.rarbg.me:2740/announce
udp://9.rarbg.to:2790/announce
udp://public.popcorn-tracker.org:6969/announce
udp://open.stealth.si:80/announce
udp://tracker.vanitycore.co:6969/announce
udp://tracker.opentrackr.org:1337/announce
udp://bt.firebit.co.uk:6969/announce
udp://shadowshq.yi.org:6969/announce
udp://tracker.zer0day.to:1337/announce
udp://tracker.leechers-paradise.org:6969/announce
udp://coppersurfer.tk:6969/announce
ĀµTorrent compatible trackers list

Locations

name
KickassTorrents
Torrent hash: A9379ABD26461C96AAB85211F648610E046EBEE0

[ LIMITED VPN OFFER ]
strongly advises you to use NordVPN while downloading torrents.
NordVPN is the safest VPN on the market, and the fastest VPN as well.
No IP Log is saved using NordVPN, avoid other VPN providers and choose the safest one.
Click here and buy NordVPN it's on rebates today!
We were able to verify your IP: 54.221.75.115, country: United States and you are near by: Ashburn.
If we can do that, others can too, protect your privacy with NordVPN.
is trying the best for you!
[ LIMITED VPN OFFER ]


All Comments

*comments box temporarily disabled*
Report a bug