Joker (2019) [Xvid - Ita 5.1 Eng Ac3 - Sub Eng Ita]

seeders: 22
leechers: 5
updated:
Added by Markus03 in Other


ᕦ( ▨̅ ͜▨̅ )ᕥ SPECIAL DEAL - OFFER ᕦ( ▨̅ ͜▨̅ )ᕥ
strongly advises you to use Nord while downloading torrents.
Nord is the safest on the market, and the fastest as well.
No IP Log is saved using Nord, avoid other providers and choose the safest one.
Click here and buy Nord it's on rebates today!
We were able to verify your IP: 3.234.245.125, country: United States.
If we can do that, others can too, protect your privacy with Nord.
is trying the best for you!
ᕦ( ▨̅ ͜▨̅ )ᕥ SPECIAL DEAL - OFFER ᕦ( ▨̅ ͜▨̅ )ᕥ


Joker (2019) [Xvid - Ita 5.1 Eng Ac3 - Sub Eng Ita] Size: 1.3 GB (1395864371 Bytes)

Description

Joker (2019) [Xvid - Ita 5.1 Eng Ac3 - Sub Eng Ita]

.: Trama :.

Arthur Fleck vive con l'anziana madre in un palazzone fatiscente e sbarca il lunario facendo pubblicità per la strada travestito da clown, in attesa di avere il giusto materiale per realizzare il desiderio di fare il comico. La sua vita, però, è una tragedia: ignorato, calpestato, bullizzato, preso in giro da da chiunque, ha sviluppato un tic nervoso che lo fa ridere a sproposito incontrollabilmente, rendendolo inquietante e allontanando ulteriormente da lui ogni possibile relazione sociale. Ma un giorno Arthur non ce la fa più e reagisce violentemente, pistola alla mano. Mentre la polizia di Gotham City dà la caccia al clown killer, la popolazione lo elegge a eroe metropolitano, simbolo della rivolta degli oppressi contro l'arroganza dei ricchi. 

.: Locandina :.

 

.: Crediti :.

Titolo originale: Joker 
Nazionalità: USA
Anno: 2019
Genere: Drammatico
Regia: Todd Phillips
Produzione: Warner Bros
Distribuzione: Warner BRos
Cast:Joaquin Phoenix, Robert De Niro, Zazie Beetz, Frances Conroy, Marc Maron
Durata: 121 min.


========================================

.: Dati tecnici del file :.

General
Complete name : J0K3R\J0K3R.avi
Format : AVI
Format/Info : Audio Video Interleave
File size : 1.34 GiB
Duration : 2 h 1 min
Overall bit rate : 1 580 kb/s

Video
ID : 0
Format : MPEG-4 Visual
Format profile : Advanced [email protected] 
Format settings : BVOP1 / QPel
Format settings, BVOP : 1
Format settings, QPel : Yes
Format settings, GMC : No warppoints
Format settings, Matrix : Default (H.263)
Codec ID : XVID
Codec ID/Hint : XviD
Duration : 2 h 1 min
Bit rate : 929 kb/s
Width : 656 pixels
Height : 352 pixels
Display aspect ratio : 1.85:1
Frame rate : 23.976 (24000/1001) FPS
Color space : YUV
Chroma subsampling : 4:2:0
Bit depth : 8 bits
Scan type : Progressive
Compression mode : Lossy
Bits/(Pixel*Frame) : 0.168
Stream size : 810 MiB (59%)
Writing library : XviD 67

Audio #1
ID : 1
Format : AC-3
Format/Info : Audio Coding 3
Commercial name : Dolby Digital
Codec ID : 2000
Duration : 2 h 1 min
Bit rate mode : Constant
Bit rate : 448 kb/s
Channel(s) : 6 channels
Channel layout : L R C LFE Ls Rs
Sampling rate : 48.0 kHz
Frame rate : 31.250 FPS (1536 SPF)
Compression mode : Lossy
Stream size : 390 MiB (28%)
Alignment : Aligned on interleaves
Interleave, duration : 64 ms (1.53 video frames)
Interleave, preload duration : 192 ms
Title : ITA
Service kind : Complete Main

Audio #2
ID : 2
Format : AC-3
Format/Info : Audio Coding 3
Commercial name : Dolby Digital
Codec ID : 2000
Duration : 2 h 1 min
Bit rate mode : Constant
Bit rate : 192 kb/s
Channel(s) : 2 channels
Channel layout : L R
Sampling rate : 48.0 kHz
Frame rate : 31.250 FPS (1536 SPF)
Compression mode : Lossy
Stream size : 167 MiB (12%)
Alignment  : Aligned on interleaves
Interleave, duration : 64 ms (1.53 video frames)
Interleave, preload duration : 192 ms
Title : ENG
Service kind : Complete Main


Sharing Widget


Download torrent
Size: 1.3 GB
seeders:22
leechers:5
Joker (2019) [Xvid - Ita 5.1 Eng Ac3 - Sub Eng Ita] - (1395864371 Bytes)



To share this torrent use the code below and insert it into comments, status messages, forum posts or your signature.

Torrent: Joker (2019) [Xvid - Ita 5.1 Eng Ac3 - Sub Eng Ita]

Trackers

tracker name
udp://tracker.openbittorrent.com:80/announce
udp://tracker.publicbt.com:80/announce
udp://tracker.leechers-paradise.org:6969/announce
udp://tracker.coppersurfer.tk:6969/announce
udp://tracker.opentrackr.org:1337/announce
udp://tracker.zer0day.to:1337/announce
udp://eddie4.nl:6969/announce
udp://tracker.zer0day.to:1337/announce
udp://tracker.leechers-paradise.org:6969/announce
udp://coppersurfer.tk:6969/announce
µTorrent compatible trackers list

Locations

name
KickassTorrents
Torrent hash: 6AB21B65D3C9C63FDCD6C1E032EA153190DBDC88

ᕦ( ▨̅ ͜▨̅ )ᕥ SPECIAL DEAL - OFFER ᕦ( ▨̅ ͜▨̅ )ᕥ
strongly advises you to use Nord while downloading torrents.
Nord is the safest on the market, and the fastest as well.
No IP Log is saved using Nord, avoid other providers and choose the safest one.
Click here and buy Nord it's on rebates today!
We were able to verify your IP: 3.234.245.125, country: United States.
If we can do that, others can too, protect your privacy with Nord.
is trying the best for you!
ᕦ( ▨̅ ͜▨̅ )ᕥ SPECIAL DEAL - OFFER ᕦ( ▨̅ ͜▨̅ )ᕥ


All Comments

*comments box temporarily disabled*
Report a bug