Ray Donovan (2013) Season 06 S06 (1080p AMZN WEB-DL x265 HEVC 10b...

seeders: 8
leechers: 6
updated:
Added by UTRCorp in Other


ᕦ( ▨̅ ͜▨̅ )ᕥ SPECIAL DEAL - OFFER ᕦ( ▨̅ ͜▨̅ )ᕥ
strongly advises you to use Nord while downloading torrents.
Nord is the safest on the market, and the fastest as well.
No IP Log is saved using Nord, avoid other providers and choose the safest one.
Click here and buy Nord it's on rebates today!
We were able to verify your IP: 34.226.244.70, country: United States and you are near by: Ashburn.
If we can do that, others can too, protect your privacy with Nord.
is trying the best for you!
ᕦ( ▨̅ ͜▨̅ )ᕥ SPECIAL DEAL - OFFER ᕦ( ▨̅ ͜▨̅ )ᕥ


Description

 
Media Information  
Code:General  
Format                                   : Matroska
Format version                           : Version 4 / Version 2
File size                                : 1.14 GiB
Duration                                 : 59 min 5 s
Overall bit rate                         : 2 771 kb/s
Encoded date                             : UTC 2018-10-21 23:59:58
Writing application                      : mkvmerge v27.0.0 ('Metropolis') 64-bit
Writing library                          : libebml v1.3.6 + libmatroska v1.4.9

Video  
ID                                       : 1
Format                                   : HEVC
Format/Info                              : High Efficiency Video Coding
Format profile                           : Main [email protected]@Main
Codec ID                                 : V_MPEGH/ISO/HEVC
Duration                                 : 59 min 5 s
Bit rate                                 : 2 129 kb/s
Width                                    : 1 920 pixels
Height                                   : 1 080 pixels
Display aspect ratio                     : 16:9
Frame rate mode                          : Constant
Frame rate                               : 23.976 (24000/1001) FPS
Color space                              : YUV
Chroma subsampling                       : 4:2:0
Bit depth                                : 10 bits
Bits/(Pixel*Frame)                       : 0.043
Stream size                              : 900 MiB (77%)
Writing library                          : x265 2.8+74-fd517ae68f93:[Windows][MSVC 1915][64 bit] 10bit
Encoding settings                        : cpuid=1111039 / frame-threads=4 / numa-pools=16 / wpp / no-pmode / no-pme / no-psnr / no-ssim / log-level=2 / input-csp=1 / input-res=1920x1080 / interlace=0 / total-frames=85017 / level-idc=0 / high-tier=1 / uhd-bd=0 / ref=4 / no-allow-non-conformance / no-repeat-headers / annexb / no-aud / no-hrd / info / hash=0 / no-temporal-layers / open-gop / min-keyint=23 / keyint=250 / gop-lookahead=0 / bframes=8 / b-adapt=2 / b-pyramid / bframe-bias=0 / rc-lookahead=50 / lookahead-slices=4 / scenecut=40 / radl=0 / no-intra-refresh / ctu=64 / min-cu-size=8 / no-rect / no-amp / max-tu-size=32 / tu-inter-depth=1 / tu-intra-depth=1 / limit-tu=0 / rdoq-level=2 / dynamic-rd=0.00 / no-ssim-rd / signhide / no-tskip / nr-intra=0 / nr-inter=0 / no-constrained-intra / no-strong-intra-smoothing / max-merge=3 / limit-refs=3 / limit-modes / me=3 / subme=3 / merange=57 / temporal-mvp / weightp / no-weightb / no-analyze-src-pics / deblock=1:1 / no-sao / no-sao-non-deblock / rd=4 / no-early-skip / no-rskip / no-fast-intra / no-tskip-fast / no-cu-lossless / no-b-intra / no-splitrd-skip / rdpenalty=0 / psy-rd=1.40 / psy-rdoq=1.00 / no-rd-refine / no-lossless / cbqpoffs=0 / crqpoffs=0 / rc=crf / crf=21.0 / qcomp=0.60 / qpstep=4 / stats-write=0 / stats-read=0 / ipratio=1.40 / pbratio=1.30 / aq-mode=2 / aq-strength=1.00 / cutree / zone-count=0 / no-strict-cbr / qg-size=32 / no-rc-grain / qpmax=69 / qpmin=0 / no-const-vbv / sar=0 / overscan=0 / videoformat=5 / range=0 / colorprim=2 / transfer=2 / colormatrix=2 / chromaloc=0 / display-window=0 / max-cll=0,0 / min-luma=0 / max-luma=1023 / log2-max-poc-lsb=8 / vui-timing-info / vui-hrd-info / slices=1 / no-opt-qp-pps / no-opt-ref-list-length-pps / no-multi-pass-opt-rps / scenecut-bias=0.05 / no-opt-cu-delta-qp / no-aq-motion / no-hdr / no-hdr-opt / no-dhdr10-opt / no-idr-recovery-sei / analysis-reuse-level=5 / scale-factor=0 / refine-intra=0 / refine-inter=0 / refine-mv=0 / no-limit-sao / ctu-info=0 / no-lowpass-dct / refine-mv-type=0 / copy-pic=1 / max-ausize-factor=1.0 / no-dynamic-refine / no-single-sei
Language                                 : English
Default                                  : Yes
Forced                                   : No

Audio  
ID                                       : 2
Format                                   : E-AC-3
Format/Info                              : Enhanced Audio Coding 3
Format settings, Endianness              : Big
Codec ID                                 : A_EAC3
Duration                                 : 59 min 5 s
Bit rate mode                            : Constant
Bit rate                                 : 640 kb/s
Channel(s)                               : 6 channels
Channel positions                        : Front: L C R, Side: L R, LFE
Sampling rate                            : 48.0 kHz
Frame rate                               : 187.500 FPS (256 spf)
Compression mode                         : Lossy
Delay relative to video                  : 2 ms
Stream size                              : 271 MiB (23%)
Language                                 : English
Default                                  : Yes
Forced                                   : No

Subtitle  
ID                                       : 3
Format                                   : UTF-8
Codec ID                                 : S_TEXT/UTF8
Codec ID/Info                            : UTF-8 Plain Text
Duration                                 : 55 min 46 s
Bit rate                                 : 55 b/s
Count of elements                        : 961
Stream size                              : 22.7 KiB (0%)
Language                                 : English
Default                                  : Yes
Forced                                   : No

Menu  
00:00:00.000                             : en:Studio Logo
00:00:05.426                             : en:Previously On
00:01:53.426                             : en:Title Sequence
00:02:02.426                             : en:Ray hits an all time low
00:09:58.426                             : en:Ray seeks solace in a bar
00:16:03.426                             : en:Grief changes shape but it never leaves
00:20:35.426                             : en:Every choice has a consequence
00:25:33.426                             : en:Ray tries to help a friend the only way he knows how
00:29:40.426                             : en:Scene 10
00:32:54.426                             : en:Scene 11
00:41:55.426                             : en:Antoine shows his producers the costumes for Mr. Lucky
00:44:59.426                             : en:Ray asks Terry for a favor
00:47:14.426                             : en:No matter how hard he tries, Ray can't seem to walk away
00:50:07.426                             : en:Things keep going from bad to worse
00:56:01.426                             : en:End Credits
00:58:02.426                             : en:Next Time

 

Source Information  
Code:Release:NTB
 
 
 Note From UTR  
We have no issue with individuals posting or re-uploading our torrents on a platform we aren't on. However, if this is something you'd like to do, please do so in a 'as-is' format. We ask that you do not create a new torrent, include all descriptions you see above including the UTR logo, tags, notes and screenshots. If you'd like to become a permanent poster on a website we don't post to, feel free to get in contact with a UniTeam member.

If possible please donate: BTC 1QA5fum5AyXvWzdVCkQzUNvw3Ef15fHRaR

Sharing Widget


Download torrent
Size: 12.4 GB
seeders:8
leechers:6
Ray Donovan (2013) Season 06 S06 (1080p AMZN WEB-DL x265 HEVC 10b... - (13314398617 Bytes)



To share this torrent use the code below and insert it into comments, status messages, forum posts or your signature.

Torrent: Ray Donovan (2013) Season 06 S06 (1080p AMZN WEB-DL x265 HEVC 10b...

Trackers

tracker name
udp://tracker.coppersurfer.tk:6969/announce
udp://9.rarbg.com:2710/announce
udp://9.rarbg.to:2710/announce
udp://tracker.torrent.eu.org:451/announce
udp://exodus.desync.com:6969/announce
udp://tracker.tiny-vps.com:6969/announce
udp://open.demonii.si:1337/announce
udp://tracker.opentrackr.org:1337/announce
udp://tracker.internetwarriors.net:1337/announce
udp://tracker.zer0day.to:1337/announce
udp://tracker.leechers-paradise.org:6969/announce
udp://coppersurfer.tk:6969/announce
µTorrent compatible trackers list

Locations

name
KickassTorrents
Torrent hash: 239B9E995CE091288049A9E00365BE8AD6577070

ᕦ( ▨̅ ͜▨̅ )ᕥ SPECIAL DEAL - OFFER ᕦ( ▨̅ ͜▨̅ )ᕥ
strongly advises you to use Nord while downloading torrents.
Nord is the safest on the market, and the fastest as well.
No IP Log is saved using Nord, avoid other providers and choose the safest one.
Click here and buy Nord it's on rebates today!
We were able to verify your IP: 34.226.244.70, country: United States and you are near by: Ashburn.
If we can do that, others can too, protect your privacy with Nord.
is trying the best for you!
ᕦ( ▨̅ ͜▨̅ )ᕥ SPECIAL DEAL - OFFER ᕦ( ▨̅ ͜▨̅ )ᕥ


All Comments

*comments box temporarily disabled*
Report a bug