South Park Complete Collection Season 1 to 22 with Extras and Mov...

seeders: 1
leechers: 12
updated:
Added by ShieldBearer in Other


ᕦ( ▨̅ ͜▨̅ )ᕥ SPECIAL DEAL - OFFER ᕦ( ▨̅ ͜▨̅ )ᕥ
strongly advises you to use Nord while downloading torrents.
Nord is the safest on the market, and the fastest as well.
No IP Log is saved using Nord, avoid other providers and choose the safest one.
Click here and buy Nord it's on rebates today!
We were able to verify your IP: 3.94.202.172, country: United States.
If we can do that, others can too, protect your privacy with Nord.
is trying the best for you!
ᕦ( ▨̅ ͜▨̅ )ᕥ SPECIAL DEAL - OFFER ᕦ( ▨̅ ͜▨̅ )ᕥ


Description

South Park Complete Collection Season 1 to 22 with Extras and Movie  

 


Encoded in H265 NVEnc from BluRay.
Selective download  so you can choose what you want.

Please Seed, it's what we need  

Please donate, it's really appreciated:  
Code:BTC: 32Fx9hd6BzKG9h7iU3EVFA7DD4CHHynFtK
BTH: qpac8pmvprm445r7jazat634j935wfeyjujqnx4c52
ETH: 0x032Dd3c7972af2D97F1AbD74eDCd4Ecdf92E5504 
Summary:  
Follows the misadventures of four irreverent grade-schoolers in the quiet, dysfunctional town of South Park, Colorado.

South Park is an American adult animated sitcom created by Trey Parker and Matt Stone and developed by Brian Graden for the Comedy Central television network. The show revolves around four boys—Stan Marsh, Kyle Broflovski, Eric Cartman, and Kenny McCormick—and their exploits in and around the titular Colorado town. Much like The Simpsons, South Park uses a very large ensemble cast of recurring characters. It became infamous for its profanity and dark, surreal humor that satirizes a wide range of topics towards a mature audience. Parker and Stone developed the show from The Spirit of Christmas, two consecutive animated shorts. The latter became one of the first Internet viral videos, ultimately leading to South Park's production.

Since its debut on August 13, 1997, 297 episodes of South Park have been broadcast. It debuted with great success, consistently earning the highest ratings of any basic cable program. Subsequent ratings have varied but it remains one of Comedy Central's highest rated shows, and is slated to air new episodes through 2019. The pilot episode was produced using cutout animation, leading to all subsequent episodes being produced with computer animation that emulated the cutout technique. Parker and Stone perform most of the voice acting for the show's male characters. Since 2000, each episode has typically been written and produced in the week preceding its broadcast, with Parker serving as the primary writer and director. The show's twenty-third season will premiere on September 25, 2019. On September 12, 2019, the show was renewed for seasons 24 through 26 until 2022.

South Park has received numerous accolades, including five Primetime Emmy Awards, a Peabody Award, and numerous inclusions in various publications' lists of greatest television shows. The show's popularity resulted in a feature-length theatrical film, South Park: Bigger, Longer & Uncut which was released in June 1999, less than two years after the show's premiere, and became a commercial and critical success, even garnering a nomination for an Academy Award. In 2013, TV Guide ranked South Park the tenth Greatest TV Cartoon of All Time

Screens:  
 
 
 
 
 
 
 

Media Info:  
Code:General
Complete name               : D:\Videos\South Park Complete Collection [1080p H265][MP3 5.1 Ch]\South Park (1997) Season 11 S11 [1080p H265][MP3 5.1 Ch]\South Park (1997) - S11E09 - More Crap [1080p H265][MP3 5.1 Ch].mp4
Format                      : MPEG-4
Format profile              : Base Media / Version 2
Codec ID                    : mp42 (isom/iso2/mp41)
File size                   : 237 MiB
Duration                    : 22 min 22 s
Overall bit rate            : 1 480 kb/s
Encoded date                : UTC 2019-09-15 00:24:52
Tagged date                 : UTC 2019-09-15 00:24:52
Writing application         : HandBrake 1.2.2 2019022300

Video
ID                          : 1
Format                      : HEVC
Format/Info                 : High Efficiency Video Coding
Format profile              : [email protected]@Main
Codec ID                    : hvc1
Codec ID/Info               : High Efficiency Video Coding
Duration                    : 22 min 22 s
Bit rate                    : 1 217 kb/s
Width                       : 1 920 pixels
Height                      : 1 080 pixels
Display aspect ratio        : 16:9
Frame rate mode             : Variable
Frame rate                  : 23.976 (24000/1001) FPS
Minimum frame rate          : 23.974 FPS
Maximum frame rate          : 23.981 FPS
Color space                 : YUV
Chroma subsampling          : 4:2:0
Bit depth                   : 8 bits
Bits/(Pixel*Frame)          : 0.024
Stream size                 : 195 MiB (82%)
Encoded date                : UTC 2019-09-15 00:24:52
Tagged date                 : UTC 2019-09-15 00:24:52
Color range                 : Limited
Color primaries             : BT.709
Transfer characteristics    : BT.709
Matrix coefficients         : BT.709
Menus                       : 3
Codec configuration box     : hvcC

Audio
ID                          : 2
Format                      : MPEG Audio
Format version              : Version 1
Format profile              : Layer 3
Format settings             : Joint stereo / MS Stereo
Codec ID                    : mp4a-6B
Duration                    : 22 min 22 s
Bit rate mode               : Constant
Bit rate                    : 256 kb/s
Channel(s)                  : 2 channels
Sampling rate               : 44.1 kHz
Compression mode            : Lossy
Stream size                 : 41.0 MiB (17%)
Title                       : Stereo
Writing library             : LAME3.100
Language                    : English
Default                     : Yes
Alternate group             : 1
Encoded date                : UTC 2019-09-15 00:24:52
Tagged date                 : UTC 2019-09-15 00:24:52
Menus                       : 3

Menu
ID                          : 3
Codec ID                    : text
Duration                    : 22 min 22 s
Language                    : English
Encoded date                : UTC 2019-09-15 00:24:52
Tagged date                 : UTC 2019-09-15 00:24:52
Bit rate mode               : CBR
Menu For                    : 1,2
00:00:00.000                : Chapter 1
00:00:33.408                : Chapter 2
00:11:33.151                : Chapter 3
00:17:04.315                : Chapter 4
00:21:50.184                : Chapter 5
Bit rate mode               : Constant 

Sharing Widget


Download torrent
Size: 78.3 GB
seeders:1
leechers:12
South Park Complete Collection Season 1 to 22 with Extras and Mov... - (84073984819 Bytes)



To share this torrent use the code below and insert it into comments, status messages, forum posts or your signature.

Torrent: South Park Complete Collection Season 1 to 22 with Extras and Mov...

Trackers

tracker name
UDP://TRACKER.LEECHERS-PARADISE.ORG:6969/ANNOUNCE
UDP://TRACKER.COPPERSURFER.TK:6969/ANNOUNCE
UDP://TRACKER.OPENTRACKR.ORG:1337/ANNOUNCE
UDP://TRACKER.ZER0DAY.TO:1337/ANNOUNCE
UDP://EDDIE4.NL:6969/ANNOUNCE
udp://tracker.coppersurfer.tk:6969/announce
udp://tracker.leechers-paradise.org:6969
udp://exodus.desync.com:6969/announce
udp://tracker.pirateparty.gr:6969
udp://tracker.internetwarriors.net:1337/announce
udp://9.rarbg.to:2710/announce
udp://tracker.open-internet.nl:6969/announce
udp://tracker.opentrackr.org:1337/announce
udp://tracker.openbittorrent.com:80
udp://tracker.zer0day.to:1337/announce
udp://tracker.leechers-paradise.org:6969/announce
udp://coppersurfer.tk:6969/announce
µTorrent compatible trackers list

Locations

name
KickassTorrents
Torrent hash: F305480F8813D0C17F28FC161F74BAC3F1CE7124

ᕦ( ▨̅ ͜▨̅ )ᕥ SPECIAL DEAL - OFFER ᕦ( ▨̅ ͜▨̅ )ᕥ
strongly advises you to use Nord while downloading torrents.
Nord is the safest on the market, and the fastest as well.
No IP Log is saved using Nord, avoid other providers and choose the safest one.
Click here and buy Nord it's on rebates today!
We were able to verify your IP: 3.94.202.172, country: United States.
If we can do that, others can too, protect your privacy with Nord.
is trying the best for you!
ᕦ( ▨̅ ͜▨̅ )ᕥ SPECIAL DEAL - OFFER ᕦ( ▨̅ ͜▨̅ )ᕥ


All Comments

*comments box temporarily disabled*
Report a bug