Star Wars - The Mandalorian Movie - Part II (2019) - 4K UHD 10bit...

seeders: 39
leechers: 11
updated:
Added by sexysadist in Other


ᕦ( ▨̅ ͜▨̅ )ᕥ SPECIAL DEAL - OFFER ᕦ( ▨̅ ͜▨̅ )ᕥ
strongly advises you to use Nord while downloading torrents.
Nord is the safest on the market, and the fastest as well.
No IP Log is saved using Nord, avoid other providers and choose the safest one.
Click here and buy Nord it's on rebates today!
We were able to verify your IP: 3.94.202.172, country: United States.
If we can do that, others can too, protect your privacy with Nord.
is trying the best for you!
ᕦ( ▨̅ ͜▨̅ )ᕥ SPECIAL DEAL - OFFER ᕦ( ▨̅ ͜▨̅ )ᕥ


Description

 Star Wars: The Mandalorian Movie - Part II (2019)
 4K UHD 10bit HDR - S01E05-08 - In Extended Cinematic Format
 7.1 FLAC 2160p HEVC [SexySadist]

Experience the second half-season of "The Mandalorian" from 
Disney+ as one continuous 2 hour 34 minute movie with all in-
between episode titles and recaps removed, and each episode's 
storybook credits saved for the very end...now in 4K ultra
high-definition resolution with 10-bit high dynamic range color.

Dim the lights, grab the popcorn and kick up your feet to 
experience arguably the finest live-action Star Wars since the 
original trilogy as it deserves to be experienced...in 
uninterrupted cinematic form presented in its native 2.39:1 
aspect ratio and 7.1 surround sound for the ultimate 
"Mandalorian" home theater experience!

Subtitles available in English, Danish, Dutch, Finnish, French, 
German, Italian, Norwegian, Polish, Portuguese, Portuguese 
(Brazil), Spanish, Spanish (Latin America) and Swedish, both
embedded in the video and as external files. Additional 5.1 AAC
and 2.0 Dolby Digital soundtracks included.

Format : Matroska
Format version : Version 4
File size : 10.7 GiB
Duration : 2 h 33 min
Overall bit rate mode : Variable
Overall bit rate : 9 964 kb/s
Movie name : Star Wars - The Mandalorian Movie - Part II (2019) - 4K UHD 10bit HDR - S01E05-08 In Extended Cinematic Format - 7.1 FLAC 2160p HEVC [SexySadist]
Encoded date : UTC 2020-01-09 08:59:00
Writing application : mkvmerge v42.0.0 ('Overtime') 64-bit
Writing library : libebml v1.3.10 + libmatroska v1.5.2

Video
ID : 1
Format : HEVC
Format/Info : High Efficiency Video Coding
Format profile : Main [email protected]@High
HDR format : SMPTE ST 2086, HDR10 compatible
Codec ID : V_MPEGH/ISO/HEVC
Duration : 2 h 33 min
Bit rate : 6 751 kb/s
Width : 3 840 pixels
Height : 1 608 pixels
Display aspect ratio : 2.40:1
Frame rate mode : Constant
Frame rate : 23.976 (24000/1001) FPS
Color space : YUV
Chroma subsampling : 4:2:0
Bit depth : 10 bits
Bits/(Pixel*Frame) : 0.046
Stream size : 7.25 GiB (68%)
Title : Star Wars - The Mandalorian Movie - Part II (2019) - 4K UHD 10bit HDR - S01E05-08 In Extended Cinematic Format - 7.1 FLAC 2160p HEVC [SexySadist]
Writing library : x265 3.2+15-04db2bfee5d6:[Windows][GCC 9.2.1][64 bit] 10bit
Encoding settings : cpuid=1049583 / frame-threads=3 / numa-pools=8 / wpp / no-pmode / no-pme / no-psnr / no-ssim / log-level=2 / input-csp=1 / input-res=3840x1608 / interlace=0 / total-frames=0 / level-idc=0 / high-tier=1 / uhd-bd=0 / ref=1 / no-allow-non-conformance / repeat-headers / annexb / no-aud / no-hrd / info / hash=0 / no-temporal-layers / open-gop / min-keyint=23 / keyint=250 / gop-lookahead=0 / bframes=4 / b-adapt=0 / b-pyramid / bframe-bias=0 / rc-lookahead=5 / lookahead-slices=8 / scenecut=0 / radl=0 / no-splice / no-intra-refresh / ctu=32 / min-cu-size=16 / no-rect / no-amp / max-tu-size=32 / tu-inter-depth=1 / tu-intra-depth=1 / limit-tu=0 / rdoq-level=0 / dynamic-rd=0.00 / no-ssim-rd / no-signhide / no-tskip / nr-intra=0 / nr-inter=0 / no-constrained-intra / strong-intra-smoothing / max-merge=2 / limit-refs=0 / no-limit-modes / me=0 / subme=0 / merange=57 / temporal-mvp / no-frame-dup / no-hme / no-weightp / no-weightb / no-analyze-src-pics / deblock=0:0 / no-sao / no-sao-non-deblock / rd=2 / selective-sao=0 / early-skip / rskip / fast-intra / no-tskip-fast / no-cu-lossless / no-b-intra / no-splitrd-skip / rdpenalty=0 / psy-rd=2.00 / psy-rdoq=0.00 / no-rd-refine / no-lossless / cbqpoffs=0 / crqpoffs=0 / rc=crf / crf=16.0 / qcomp=0.60 / qpstep=4 / stats-write=0 / stats-read=0 / vbv-maxrate=75000 / vbv-bufsize=75000 / vbv-init=0.9 / crf-max=0.0 / crf-min=0.0 / ipratio=1.40 / pbratio=1.30 / aq-mode=4 / aq-strength=0.00 / cutree / zone-count=0 / no-strict-cbr / qg-size=32 / no-rc-grain / qpmax=69 / qpmin=0 / no-const-vbv / sar=1 / overscan=0 / videoformat=5 / range=0 / colorprim=9 / transfer=16 / colormatrix=9 / chromaloc=0 / display-window=0 / master-display=G(13250,34500)B(7500,3000)R(34000,16000)WP(15635,16450)L(40000000,500) / cll=0,0 / min-luma=0 / max-luma=1023 / log2-max-poc-lsb=8 / vui-timing-info / vui-hrd-info / slices=1 / no-opt-qp-pps / no-opt-ref-list-length-pps / no-multi-pass-opt-rps / scenecut-bias=0.05 / no-opt-cu-delta-qp / no-aq-motion / hdr / hdr-opt / no-dhdr10-opt / no-idr-recovery-sei / analysis-reuse-level=5 / scale-factor=0 / refine-intra=0 / refine-inter=0 / refine-mv=1 / refine-ctu-distortion=0 / no-limit-sao / ctu-info=0 / no-lowpass-dct / refine-analysis-type=0 / copy-pic=1 / max-ausize-factor=1.0 / no-dynamic-refine / no-single-sei / no-hevc-aq / no-svt / no-field / qp-adaptation-range=1.00 / no-scenecut-aware-qp
Language : English
Default : Yes
Forced : No
Color range : Limited
Color primaries : BT.2020
Transfer characteristics : PQ
Matrix coefficients : BT.2020 non-constant
Mastering display color primaries : Display P3
Mastering display luminance : min: 0.0500 cd/m2, max: 4000 cd/m2

Audio #1
ID : 2
Format : FLAC
Format/Info : Free Lossless Audio Codec
Codec ID : A_FLAC
Duration : 2 h 33 min
Bit rate mode : Variable
Bit rate : 2 057 kb/s
Channel(s) : 8 channels
Channel layout : L R C LFE Lb Rb Ls Rs
Sampling rate : 48.0 kHz
Frame rate : 10.417 FPS (4608 SPF)
Bit depth : 16 bits
Compression mode : Lossless
Stream size : 2.21 GiB (21%)
Title : 7.1 FLAC Soundtrack
Writing library : Lavf57.62.100
Language : English
Default : Yes
Forced : No

Audio #2
ID : 3
Format : AAC LC
Format/Info : Advanced Audio Codec Low Complexity
Codec ID : A_AAC-2
Duration : 2 h 33 min
Bit rate : 768 kb/s
Channel(s) : 6 channels
Channel layout : C L R Ls Rs LFE
Sampling rate : 48.0 kHz
Frame rate : 46.875 FPS (1024 SPF)
Compression mode : Lossy
Stream size : 845 MiB (8%)
Title : 5.1 AAC Soundtrack
Language : English
Default : No
Forced : No

Audio #3
ID : 4
Format : AC-3
Format/Info : Audio Coding 3
Commercial name : Dolby Digital
Codec ID : A_AC3
Duration : 2 h 33 min
Bit rate mode : Constant
Bit rate : 384 kb/s
Channel(s) : 2 channels
Channel layout : L R
Sampling rate : 48.0 kHz
Frame rate : 31.250 FPS (1536 SPF)
Compression mode : Lossy
Stream size : 422 MiB (4%)
Title : 2.0 Dolby Digital Soundtrack
Language : English
Service kind : Complete Main
Default : No
Forced : No

Text #1
ID : 5
Format : UTF-8
Codec ID : S_TEXT/UTF8
Codec ID/Info : UTF-8 Plain Text
Duration : 2 h 21 min
Bit rate : 54 b/s
Count of elements : 1704
Stream size : 56.3 KiB (0%)
Title : English subtitles
Language : English
Default : Yes
Forced : No

Text #2
ID : 6
Format : UTF-8
Codec ID : S_TEXT/UTF8
Codec ID/Info : UTF-8 Plain Text
Duration : 2 h 21 min
Bit rate : 38 b/s
Count of elements : 1049
Stream size : 40.2 KiB (0%)
Title : Danish subtitles
Default : No
Forced : No

Text #3
ID : 7
Format : UTF-8
Codec ID : S_TEXT/UTF8
Codec ID/Info : UTF-8 Plain Text
Duration : 2 h 21 min
Bit rate : 40 b/s
Count of elements : 1160
Stream size : 42.2 KiB (0%)
Title : Dutch subtitles
Language : Dutch
Default : No
Forced : No

Text #4
ID : 8
Format : UTF-8
Codec ID : S_TEXT/UTF8
Codec ID/Info : UTF-8 Plain Text
Duration : 2 h 21 min
Bit rate : 35 b/s
Count of elements  : 1335
Stream size : 37.1 KiB (0%)
Title : Finnish subtitles
Default : No
Forced : No

Text #5
ID : 9
Format : UTF-8
Codec ID : S_TEXT/UTF8
Codec ID/Info : UTF-8 Plain Text
Duration : 2 h 21 min
Bit rate : 36 b/s
Count of elements : 1334
Stream size : 38.1 KiB (0%)
Title : French subtitles
Language : French
Default : No
Forced : No

Text #6
ID : 10
Format : UTF-8
Codec ID : S_TEXT/UTF8
Codec ID/Info : UTF-8 Plain Text
Duration : 2 h 21 min
Bit rate : 40 b/s
Count of elements : 1380
Stream size : 41.7 KiB (0%)
Title : German subtitles
Language : German
Default : No
Forced : No

Text #7
ID : 11
Format : UTF-8
Codec ID : S_TEXT/UTF8
Codec ID/Info : UTF-8 Plain Text
Duration : 2 h 21 min
Bit rate : 38 b/s
Count of elements : 1339
Stream size : 39.7 KiB (0%)
Title : Italian subtitles
Language : Italian
Default : No
Forced : No

Text #8
ID : 12
Format : UTF-8
Codec ID : S_TEXT/UTF8
Codec ID/Info : UTF-8 Plain Text
Duration : 2 h 21 min
Bit rate : 35 b/s
Count of elements : 1340
Stream size : 36.7 KiB (0%)
Title : Norwegian subtitles
Default : No
Forced : No

Text #9
ID : 13
Format : UTF-8
Codec ID : S_TEXT/UTF8
Codec ID/Info : UTF-8 Plain Text
Duration : 2 h 21 min
Bit rate : 38 b/s
Count of elements : 1331
Stream size : 40.3 KiB (0%)
Title : Polish subtitles
Language : Polish
Default : No
Forced : No

Text #10
ID : 14
Format : UTF-8
Codec ID : S_TEXT/UTF8
Codec ID/Info : UTF-8 Plain Text
Duration : 2 h 21 min
Bit rate : 41 b/s
Count of elements  : 1334
Stream size : 43.0 KiB (0%)
Title : Portuguese subtitles
Language : Portuguese
Default : No
Forced : No

Text #11
ID : 15
Format : UTF-8
Codec ID : S_TEXT/UTF8
Codec ID/Info : UTF-8 Plain Text
Duration : 2 h 21 min
Bit rate : 41 b/s
Count of elements : 1337
Stream size : 42.6 KiB (0%)
Title : Portuguese (Brazil) subtitles
Language : Portuguese
Default : No
Forced : No

Text #12
ID : 16
Format : UTF-8
Codec ID : S_TEXT/UTF8
Codec ID/Info : UTF-8 Plain Text
Duration : 2 h 21 min
Bit rate : 37 b/s
Count of elements : 1340
Stream size : 39.2 KiB (0%)
Title : Spanish subtitles
Language : Spanish
Default : No
Forced : No

Text #13
ID : 17
Format : UTF-8
Codec ID : S_TEXT/UTF8
Codec ID/Info : UTF-8 Plain Text
Duration : 2 h 21 min
Bit rate : 37 b/s
Count of elements : 1340
Stream size : 39.0 KiB (0%)
Title : Spanish (Latin America) subtitles
Language : Spanish
Default : No
Forced : No

Text #14
ID : 18
Format : UTF-8
Codec ID : S_TEXT/UTF8
Codec ID/Info : UTF-8 Plain Text
Duration : 2 h 21 min
Bit rate : 41 b/s
Count of elements : 1076
Stream size : 42.6 KiB (0%)
Title : Swedish subtitles
Default : No
Forced : No

Screenshots:

 

 

 

 

 

 

 

 

 

 

 

 

 

 

 

 

 

 

 

 

 

 

 

 

 

 

 


Sharing Widget


Download torrent
Size: 10.8 GB
seeders:39
leechers:11
Star Wars - The Mandalorian Movie - Part II (2019) - 4K UHD 10bit... - (11596411699 Bytes)



To share this torrent use the code below and insert it into comments, status messages, forum posts or your signature.

Torrent: Star Wars - The Mandalorian Movie - Part II (2019) - 4K UHD 10bit...

Trackers

tracker name
udp://tracker.openbittorrent.com:80/announce
udp://tracker.opentrackr.org:1337/announce
udp://9.rarbg.to:2730/announce
udp://ipv4.tracker.harry.lu:80/announce
udp://open.demonii.si:1337/announce
udp://open.stealth.si:80/announce
udp://tracker.coppersurfer.tk:6969/announce
udp://tracker.leechers-paradise.org:6969/announce
udp://tracker.tiny-vps.com:6969/announce
udp://exodus.desync.com:6969/announce
http://tracker.ygsub.com:6969/announce
udp://denis.stalker.upeer.me:6969/announce
udp://p4p.arenabg.com:1337/announce
udp://tracker.pirateparty.gr:6969/announce
udp://tracker.zer0day.to:1337/announce
udp://tracker.leechers-paradise.org:6969/announce
udp://coppersurfer.tk:6969/announce
µTorrent compatible trackers list

Locations

name
KickassTorrents
Torrent hash: 45B5FDA1304842F13A31ED2F2243DCF74DC88A53

ᕦ( ▨̅ ͜▨̅ )ᕥ SPECIAL DEAL - OFFER ᕦ( ▨̅ ͜▨̅ )ᕥ
strongly advises you to use Nord while downloading torrents.
Nord is the safest on the market, and the fastest as well.
No IP Log is saved using Nord, avoid other providers and choose the safest one.
Click here and buy Nord it's on rebates today!
We were able to verify your IP: 3.94.202.172, country: United States.
If we can do that, others can too, protect your privacy with Nord.
is trying the best for you!
ᕦ( ▨̅ ͜▨̅ )ᕥ SPECIAL DEAL - OFFER ᕦ( ▨̅ ͜▨̅ )ᕥ


All Comments

*comments box temporarily disabled*
Report a bug